#TITLE:The Weak Willed;
#SUBTITLE:;
#ARTIST:All That Remains;
#TITLETRANSLIT:;
#SUBTITLETRANSLIT:;
#ARTISTTRANSLIT:;
#CREDIT:;
#BANNER:allthatremains-banner.jpg;
#BACKGROUND:allthatremains-background.jpg;
#LYRICSPATH:;
#CDTITLE:;
#MUSIC:All That Remains_The Fall of Ideals_06_The Weak Willed.mp3;
#OFFSET:0.070;
#SAMPLESTART:100.000;
#SAMPLELENGTH:11.980;
#SELECTABLE:YES;
#BPMS:0.000=317.600,97.000=211.740,113.500=208.000,146.000=317.599,158.000=206.500,222.000=317.599,414.000=158.799,513.000=317.598,728.500=238.198,836.000=158.799;
#STOPS:;
#BGCHANGES:;
// cache tags:
#FIRSTBEAT:1.000;
#LASTBEAT:948.000;
#SONGFILENAME:Songs/Music V.I.P ^_^/All That Remains - The Weak Willed/All That Remains_The Fall of Ideals_06_The Weak Willed.sm;
#HASMUSIC:1;
#HASBANNER:1;
#MUSICLENGTH:245.707;
// end cache tags

//---------------dance-single - Copied from----------------
#NOTES:
     dance-single:
     Copied from:
     Challenge:
     12:
     1.000,1.000,0.407,1.000,0.409,1444.000,100.000,440.000,0.000,6.000:
0000
0000
0001
0001
0001
0010
0010
0010
,
0100
0100
0100
1000
1000
1000
0100
0100
,
0100
0010
0010
0010
0001
0001
0001
0100
,
0100
0100
0010
0010
0010
1000
1000
1000
,
0001
0001
0001
0010
0010
0010
1000
1000
,
1000
0001
0001
0001
0100
0100
0100
1000
,
1000
1000
0010
0010
0010
0100
0100
0100
,
0001
0001
0001
0010
0010
0010
0001
0001
,
0001
0000
0000
0100
0000
0000
0100
0000
0000
0100
0000
0000
0002
0003
2000
3000
0002
0003
2000
3000
0002
0003
2000
3000
,
0000
0000
0000
0000
0000
0000
0200
0300
0000
0000
0020
0030
0000
0000
0200
0300
0000
0000
0020
0030
0000
0000
0200
0300
,
0000
0000
0020
0030
0000
0000
0200
0300
0000
0000
0020
0030
0000
0000
0200
0300
0000
0000
0020
0030
0000
0000
0200
0300
,
0000
0000
0020
0030
0000
0000
0200
0300
0000
0000
0020
0030
0000
0000
2000
3000
0002
0003
2000
3000
0002
0003
2000
3000
,
0002
0003
0000
0000
0000
0000
0001
0000
0000
0001
0000
0000
0001
0000
0000
0010
0000
0000
0010
0000
0000
0010
0000
0000
,
0100
0100
0100
1000
1000
1000
0100
0100
,
0100
0010
0010
0010
0001
0001
0001
0100
,
0100
0100
0010
0010
0010
1000
1000
1000
,
0001
0001
0001
0010
0010
0010
1000
1000
,
1000
0001
0001
0001
0100
0100
0100
1000
,
1000
1000
0010
0010
0010
0100
0100
0100
,
0001
0001
0001
0010
0010
0010
0001
0001
,
0001
0000
0000
0100
0000
0000
0100
0000
0000
0100
0000
0000
0002
0003
2000
3000
0002
0003
2000
3000
0002
0003
2000
3000
,
0000
0000
0000
0000
0000
0000
0200
0300
0000
0000
0020
0030
0000
0000
0200
0300
0000
0000
0020
0030
0000
0000
0200
0300
,
0000
0000
0020
0030
0000
0000
0200
0300
0000
0000
0020
0030
0000
0000
0200
0300
0000
0000
0020
0030
0000
0000
0200
0300
,
0000
0000
0020
0030
0000
0000
0200
0300
0000
0000
0020
0030
0000
0000
2000
3000
0002
0003
2000
3000
0002
0003
2000
3000
,
0002
0003
0000
0000
0000
0000
2200
0000
0000
0320
0000
0000
0032
0000
0000
0003
0000
0000
0010
0000
0000
0010
0000
0000
,
0010
0010
0010
0010
0002
0023
0230
0300
,
0100
0100
0020
0000
0000
0000
0031
0001
,
0020
0000
0000
0030
0100
0010
0001
0010
0100
0010
0001
0010
,
0100
0000
0010
0000
0001
0000
0010
0000
0100
0000
3000
0000
0000
0000
0000
0000
0000
0000
0000
0000
0000
1100
0000
0000
,
0000
0000
0000
1001
0000
0000
0000
0101
,
0000
0000
0000
1010
0000
0000
0000
1001
,
0000
0000
0000
0000
0000
0000
0000
0000
0000
1000
0000
0000
0000
0100
0000
0000
0000
0010
0000
0000
0000
0001
0000
0000
,
0000
0010
0000
0000
0000
0100
0000
0000
0000
1000
0000
0000
0000
0000
0000
0000
0000
0000
0000
0000
0000
0011
0000
0000
,
0000
0000
0000
0110
0000
0000
0000
1010
,
0000
0000
0000
0101
0000
0000
0000
1001
,
0000
0000
0000
0000
0000
0000
0000
0000
0000
0000
0000
0010
0000
0000
0000
0100
0000
0000
0000
1000
0000
0000
0000
0100
,
0000
0000
0000
0010
0000
0000
0000
0001
0000
0000
0000
0000
0010
0000
0000
0010
0000
0000
0010
0000
0000
1000
0000
0000
,
1000
1000
0001
0001
0001
0100
0100
0100
,
0001
0001
0001
1000
1000
1000
0010
0010
,
0010
0100
0100
0100
0011
0000
0000
0000
,
1100
0000
0101
0000
,
1010
0000
1001
0000
,
0110
0000
0000
0000
0000
0000
0001
0000
0010
0000
0100
0000
,
1000
0000
0100
0000
0010
0000
0001
0000
0000
0000
0000
0000
,
0101
0000
1010
0000
,
1001
0000
0110
0000
,
1001
0000
0000
0000
0000
0000
0001
0000
0010
0000
0100
0000
,
1000
0000
0100
0000
0010
0000
0001
0000
0000
0000
0000
0000
,
0011
0000
1100
0000
,
0110
0000
1001
0000
,
0110
0000
0000
0000
0000
0000
0001
0000
0010
0000
0100
0000
,
1000
0000
0100
0000
0010
0000
0001
0000
0000
0000
0000
0000
,
0101
0000
0011
0000
,
1100
0000
1010
0000
,
1001
0000
0000
0000
0000
0000
0001
0000
0010
0000
0100
0000
,
1000
0000
0000
0000
0100
0000
0000
0000
0010
0000
0000
0000
0001
0000
0000
0001
0000
0000
0001
0000
0000
0010
0000
0000
,
0010
0010
0100
0100
0100
1000
1000
1000
,
0100
0100
0100
0010
0010
0010
0001
0001
,
0001
0100
0100
0100
0010
0010
0010
1000
,
1000
1000
0001
0001
0001
0010
0010
0010
,
1000
1000
1000
0001
0001
0001
0100
0100
,
0100
1000
1000
1000
0010
0010
0010
0100
,
0100
0100
0001
0001
0001
0010
0010
0010
,
0001
0000
0000
0001
0000
0000
0001
0000
0000
0100
0000
0000
0100
0000
0000
0100
0000
0000
0002
0003
2000
3000
0002
0003
,
2000
3000
0002
0003
2000
3000
0000
0000
0000
0000
0000
0000
0200
0300
0000
0000
0020
0030
0000
0000
0200
0300
0000
0000
,
0020
0030
0000
0000
0200
0300
0000
0000
0020
0030
0000
0000
0200
0300
0000
0000
0020
0030
0000
0000
0200
0300
0000
0000
,
0020
0030
0000
0000
0200
0300
0000
0000
0020
0030
0000
0000
0200
0300
0000
0000
0020
0030
0000
0000
2000
3000
0002
0003
,
2000
3000
0002
0003
2000
3000
0002
0003
0000
0000
0000
0000
0001
0000
0000
0001
0000
0000
0001
0000
0000
0010
0000
0000
,
0010
0010
0100
0100
0100
1000
1000
1000
,
0100
0100
0100
0010
0010
0010
0001
0001
,
0001
0100
0100
0100
0010
0010
0010
1000
,
1000
1000
0001
0001
0001
0010
0010
0010
,
1000
1000
1000
0001
0001
0001
0100
0100
,
0100
1000
1000
1000
0010
0010
0010
0100
,
0100
0100
0001
0001
0001
0010
0010
0010
,
0001
0000
0000
0001
0000
0000
0001
0000
0000
0100
0000
0000
0100
0000
0000
0100
0000
0000
0002
0003
2000
3000
0002
0003
,
2000
3000
0002
0003
2000
3000
0000
0000
0000
0000
0000
0000
0200
0300
0000
0000
0020
0030
0000
0000
0200
0300
0000
0000
,
0020
0030
0000
0000
0200
0300
0000
0000
0020
0030
0000
0000
0200
0300
0000
0000
0020
0030
0000
0000
0200
0300
0000
0000
,
0020
0030
0000
0000
0200
0300
0000
0000
0020
0030
0000
0000
0200
0300
0000
0000
0020
0030
0000
0000
2000
3000
0002
0003
,
2000
3000
0002
0003
2000
3000
0002
0003
0000
0010
0000
0000
0100
0000
0000
1000
0000
0000
0100
0000
0000
0010
0000
0000
,
0001
0010
0001
0010
0100
1000
0100
1000
,
0100
0010
0100
0010
0100
1000
0001
1000
,
0001
0100
0001
0100
0001
0010
1000
0010
,
1000
0010
0100
0010
0100
0001
0100
0010
,
1000
0001
0100
0010
1000
0001
0100
0010
,
1000
1000
0010
0100
0001
1000
0010
0100
,
0001
1000
0010
0100
0001
0010
0100
0001
,
1000
0010
0100
0001
1000
0010
0100
0001
,
1000
0100
0010
1000
0001
0100
0010
1000
,
0001
0100
0010
1000
0001
0100
0010
1000
,
0011
0011
0011
1100
1100
1100
0101
0101
,
0101
1010
1010
1010
0001
0010
0100
1000
,
0100
0010
0001
0010
0001
0010
0100
1000
,
0100
1000
0100
0010
0100
0010
0100
1000
,
0001
1000
0001
0100
0001
0100
0001
0010
,
1000
0010
1000
0010
0100
0010
0100
0001
,
0100
0010
1000
0001
0100
0010
1000
0001
,
0100
0010
1000
1000
0010
0100
0001
1000
,
0010
0100
0001
1000
0010
0100
0001
0010
,
0100
0001
1000
0010
0100
0001
1000
0010
,
0100
0001
1000
0100
0010
1000
0001
0100
,
0010
1000
0001
0100
0010
1000
0001
0100
,
0010
1000
0001
0001
0001
0010
0010
0010
,
0100
0100
0100
0000
2200
0000
0000
0000
,
0000
0000
0000
3300
0022
0000
0000
0000
0000
0033
0220
0330
2020
0000
0000
3030
,
0202
0000
0000
0000
0000
0000
0000
0000
0000
0000
0000
0303
2002
0000
0000
0000
,
0000
3003
2020
3030
0022
0000
0000
0033
0202
0000
0000
0000
0000
0000
0000
0000
,
0000
0000
0000
0303
2200
0000
0000
0000
0000
0000
0000
0000
0000
0000
0000
3300
,
2020
3030
0220
0000
0000
0000
0000
0000
0000
0000
0000
0330
0022
0033
0002
0023
,
0230
2300
3000
0000
2200
0000
0000
3300
0220
0000
0000
0000
0000
0000
0000
0000
,
0000
0000
0000
0330
0202
0000
0000
0000
0000
0303
0022
0033
2020
0000
0000
3030
,
2002
0000
0000
0000
0000
0000
0000
0000
0000
0000
0000
3003
2200
0000
0000
0000
,
0000
3300
0220
0330
2002
0000
0000
3003
0022
0000
0000
0000
0000
0000
0000
0000
,
0000
0000
0000
0033
2020
0000
0000
0000
0000
3030
0202
0303
2020
0000
0000
3030
,
0202
0000
0000
0000
0000
0303
2200
0000
0000
0000
3300
0000
0220
0000
0000
0000
,
0330
0000
0022
0000
0000
0000
0033
0000
2000
3000
2000
0000
0000
3000
0200
0300
,
0020
0000
0000
0000
0000
0030
0200
0000
0000
0000
0000
0300
0020
0030
0002
0003
,
0020
0000
0000
0000
0000
0030
0002
0000
0000
0000
0000
0000
0000
0000
0000
0000
,
0000
0000
0000
0000
0000
0000
0000
0003
0200
0000
0000
0000
0000
0300
2000
3000
,
2000
0000
0000
3000
0200
0300
0020
0000
0000
0000
0000
0030
0200
0000
0000
0300
,
0020
0000
0030
0000
2000
3000
0002
0000
0000
0000
0000
0003
0020
0000
0000
0000
,
0000
0000
0000
0000
0000
0000
0000
0030
0002
0000
0000
0000
0000
0003
2000
3000
,
2000
0000
0000
3000
0200
0300
0020
0000
0000
0000
0000
0030
0200
0000
0000
0300
,
0020
0000
0030
0000
2000
3000
0002
0000
0000
0000
0000
0003
0020
0000
0000
0000
,
0000
0000
0000
0000
0000
0000
0000
0030
0002
0000
0000
0000
0000
0003
2000
3000
,
2000
0000
0000
3000
0200
0300
0020
0000
0000
0000
0000
0030
0200
0000
0000
0300
,
0020
0000
0030
0000
2000
3000
0002
0000
0000
0000
0000
0003
0020
0000
0000
0000
,
0000
0000
0000
0000
0000
0000
0000
0000
0000
0000
0000
0000
0030
0000
0000
1100
0000
0000
0000
1100
0000
0000
0000
0000
0000
0000
0000
0011
0000
0000
0000
0011
,
0000
0000
0010
0100
1000
0100
0010
0001
,
0010
0001
0010
0100
1000
0100
1000
0100
,
0010
0100
0010
0100
1000
0001
1000
0001
,
0100
0001
0100
0001
0010
1000
0010
1000
,
0010
0100
0010
0100
0001
0100
0010
1000
,
0001
0100
0010
1000
0001
0100
0010
1000
,
1000
0010
0100
0001
1000
0010
0100
0001
,
1000
0010
0100
0001
0010
0100
0001
1000
,
0010
0100
0001
1000
0010
0100
0001
1000
,
0100
0010
1000
0001
0100
0010
1000
0001
,
0100
0010
1000
0001
0100
0010
1000
0011
,
0011
0011
1100
1100
1100
0101
0101
0101
,
1010
1010
1010
0001
0010
0100
1000
0100
,
0010
0001
0010
0001
0010
0100
1000
0100
,
1000
0100
0010
0100
0010
0100
1000
0001
,
1000
0001
0100
0001
0100
0001
0010
1000
,
0010
1000
0010
0100
0010
0100
0001
0100
,
0010
1000
0001
0100
0010
1000
0001
0100
,
0010
1000
1000
0010
0100
0001
1000
0010
,
0100
0001
1000
0010
0100
0001
0010
0100
,
0001
1000
0010
0100
0001
1000
0010
0100
,
0001
1000
0100
0010
1000
0001
0100
0010
,
1000
0001
0100
0010
1000
0001
0100
0010
,
1000
0001
0001
0001
0010
0010
0010
0100
,
0100
0100
2000
3200
0320
0032
0023
0230
,
2300
3200
0320
0032
0023
0230
2300
3200
,
0320
0032
0023
0230
2300
3200
0320
0032
,
0023
0230
2300
3200
0320
0032
0023
0230
,
2300
3200
0320
0032
0023
0230
2300
3200
,
0320
0032
0023
0230
2300
3200
0320
0032
,
0023
0230
0301
0001
0001
0010
0010
0010
,
0100
0100
0100
1000
1000
1000
0100
0100
,
0100
0010
0010
0010
0001
0001
0001
0100
,
0100
0100
0010
0010
0010
1000
1000
1000
,
0001
0001
0001
0010
0010
0010
1000
1000
,
1000
0001
0001
0001
0100
0100
0100
1000
,
1000
1000
0010
0010
0010
0100
0100
0100
,
0001
0001
0001
0010
0010
0010
0001
0001
,
0001
0000
0000
0100
0000
0000
0100
0000
0000
0100
0000
0000
0002
0003
2000
3000
0002
0003
2000
3000
0002
0003
2000
3000
,
0000
0000
0000
0000
0000
0000
0200
0300
0000
0000
0020
0030
0000
0000
0200
0300
0000
0000
0020
0030
0000
0000
0200
0300
,
0000
0000
0020
0030
0000
0000
0200
0300
0000
0000
0020
0030
0000
0000
0200
0300
0000
0000
0020
0030
0000
0000
0200
0300
,
0000
0000
0020
0030
0000
0000
0200
0300
0000
0000
0020
0030
0000
0000
2000
3000
0002
0003
2000
3000
0002
0003
2000
3000
,
0002
0003
0000
0000
0000
0000
0001
0000
0000
0001
0000
0000
0001
0000
0000
0010
0000
0000
0010
0000
0000
0010
0000
0000
,
0100
0100
0100
1000
1000
1000
0100
0100
,
0100
0010
0010
0010
0001
0001
0001
0100
,
0100
0100
0010
0010
0010
1000
1000
1000
,
0001
0001
0001
0010
0010
0010
1000
1000
,
1000
0001
0001
0001
0100
0100
0100
1000
,
1000
1000
0010
0010
0010
0100
0100
0100
,
0001
0001
0001
0010
0010
0010
0001
0001
,
0001
0000
0000
0100
0000
0000
0100
0000
0000
0100
0000
0000
0002
0003
2000
3000
0002
0003
2000
3000
0002
0003
2000
3000
,
0000
0000
0000
0000
0000
0000
0200
0300
0000
0000
0020
0030
0000
0000
0200
0300
0000
0000
0020
0030
0000
0000
0200
0300
,
0000
0000
0020
0030
0000
0000
0200
0300
0000
0000
0020
0030
0000
0000
0200
0300
0000
0000
0020
0030
0000
0000
0200
0300
,
0000
0000
0020
0030
0000
0000
0200
0300
0000
0000
0020
0030
0000
0000
2000
3000
0002
0003
2000
3000
0002
0003
2000
3000
,
0002
0003
0000
2002
0000
0000
0000
0000
0000
0000
0000
0000
0000
0000
0000
0000
0000
0000
0000
0000
0000
0000
0000
0000
,
0000
0000
0000
0000
,
0000
0000
0000
0000
,
0000
0000
0000
0000
,
3003
0000
0000
0000
,
0000
2200
0000
3300
0202
0303
0220
0000
,
0000
0330
2020
0000
0000
0000
3030
0022
,
0000
0000
0033
2002
0000
3003
0022
0000
,
0033
2200
0000
0000
0000
0000
3300
0000
,
0000
1000
0010
0100
1000
0001
0100
0010
,
1000
0001
0100
0010
1000
0001
0010
0100
,
0010
1000
0001
0100
0010
1000
0100
0010
,
0001
0100
0010
1000
0001
0100
0010
1000
,
0001
0100
1000
0010
0100
0001
1000
0010
,
0100
0001
0010
0001
1000
0100
1000
0010
,
0001
0100
0010
0100
1000
0010
0001
1000
,
0010
0100
0010
0100
1000
0001
0001
0010
,
0001
1000
0100
1000
0001
1000
0100
0001
,
0010
1000
0100
0010
1000
0010
1000
0100
,
0010
0001
0100
0001
0010
0100
1000
0001
,
0010
0100
1000
0001
0010
0100
1000
0001
,
0100
0010
1000
0100
0010
0001
1000
0100
,
0010
0100
0001
1000
0100
1000
0010
0100
,
0001
0010
1000
0100
0001
0010
0100
0001
,
1000
0100
1000
0010
0001
0100
0010
1000
,
0100
1000
0001
0100
0010
0001
1000
0100
,
0010
0100
1000
0010
0001
0100
0010
0001
,
2000
0000
0000
0000
0000
0000
3020
0000
0032
0000
0000
0000
,
0023
0000
0000
0000
0000
0000
0000
0000
0000
2030
0000
0000
0000
0000
0000
0000
0000
0000
3200
0000
0000
0000
0320
0000
,
0000
0000
0000
0000
,
0032
0000
2003
0000
3200
0000
0302
0000
0023
0000
0230
0000
,
2300
0000
3002
0000
0203
0000
0320
0000
0032
0000
2003
3200
,
2300
0000
3020
0000
0230
0000
0302
0000
0023
0000
0230
0000
,
2300
0000
0000
0000
0000
0000
3020
0000
0032
0000
0000
0000
,
0023
0000
0000
0000
0000
0000
0000
0000
0000
2030
0000
0000
0000
0000
0000
0000
0000
0000
3200
0000
0000
0000
0320
0000
,
0000
0000
0000
0000
,
0032
0000
2003
0000
3200
0000
0302
0000
0023
0000
0230
0000
,
2300
0000
3002
0000
0203
0000
0320
0000
0032
0000
2003
3200
,
2300
0000
3020
0000
0230
0000
0302
0000
0023
0000
0230
0000
,
2300
0000
0000
0000
0000
0000
3020
0000
0032
0000
0000
0000
,
0023
0000
0000
0000
0000
0000
0000
0000
0000
2030
0000
0000
0000
0000
0000
0000
0000
0000
3200
0000
0000
0000
0320
0000
,
0000
0000
0000
0000
0000
0000
0000
0000
0230
0000
0320
0000
,
0032
0000
2003
0000
3002
0000
0023
0000
0000
0000
0000
0000
,
0230
0000
0320
0000
0032
0000
2003
0000
3020
0000
0032
0023
,
0032
0000
0203
0000
2300
0000
3020
0000
0230
0000
0302
0000
,
2003
0000
0000
0000
0000
0000
3020
0000
0032
0000
0000
0000
,
0023
0000
0000
0000
0000
0000
0000
0000
0000
2030
0000
0000
0000
0000
0000
0000
0000
0000
3200
0000
0000
0000
0320
0000
,
0000
0000
0000
0000
0000
0000
0000
0000
0230
0000
0320
0000
,
0032
0000
2003
0000
3002
0000
0023
0000
0000
0000
0000
0000
,
0230
0000
0320
0000
0032
0000
2003
0000
3020
0000
0032
0023
,
0032
0000
0203
0000
2300
0000
3020
0000
0230
0000
0320
0000
,
2032
0000
0000
0000
,
0000
0000
0000
0000
,
0000
0000
0000
0000
,
0000
0000
0000
0000
,
3003
0000
0000
0000
;

//---------------dance-single - Copied from----------------
#NOTES:
     dance-single:
     Copied from:
     Hard:
     10:
     1.000,1.000,0.977,1.000,0.409,1164.000,240.000,580.000,0.000,141.000:
0000
0000
0012
0000
0000
0123
0000
0000
,
1230
0000
0000
2310
0000
0000
3201
0000
,
0000
1320
0000
0000
0132
0000
0000
0213
,
0000
0000
0321
0000
0000
2130
0000
0000
,
3102
0000
0000
1023
0000
0000
2031
0000
,
0000
3102
0000
0000
0213
0000
0000
2310
,
0000
0000
3021
0000
0000
1230
0000
0000
,
0312
0000
0000
0123
0000
0000
1032
0000
,
0000
0000
0000
1203
0000
0000
0000
0000
0000
0000
0000
0000
0302
0003
2000
3000
0002
0003
2000
3000
0002
0003
2000
3000
,
0000
0000
0000
0000
0000
0000
0200
0300
0000
0000
0020
0030
0000
0000
0200
0300
0000
0000
0020
0030
0000
0000
0200
0300
,
0000
0000
0020
0030
0000
0000
0200
0300
0000
0000
0020
0030
0000
0000
0200
0300
0000
0000
0020
0030
0000
0000
0200
0300
,
0000
0000
0020
0030
0000
0000
0200
0300
0000
0000
0020
0030
0000
0000
2000
3000
0002
0003
2000
3000
0002
0003
2000
3000
,
0002
0003
0000
0000
0000
0000
1002
0000
0000
0000
0000
0000
0000
0000
0000
0123
0000
0000
0000
0000
0000
0000
0000
0000
,
0231
0000
0000
2310
0000
0000
3201
0000
,
0000
1320
0000
0000
0132
0000
0000
1203
,
0000
0000
1320
0000
0000
2031
0000
0000
,
3102
0000
0000
0123
0000
0000
2031
0000
,
0000
3012
0000
0000
0213
0000
0000
2301
,
0000
0000
3021
0000
0000
1230
0000
0000
,
1302
0000
0000
0123
0000
0000
0132
0000
,
0000
0000
0000
1203
0000
0000
0000
0000
0000
0000
0000
0000
0302
0003
2000
3000
0002
0003
2000
3000
0002
0003
2000
3000
,
0000
0000
0000
0000
0000
0000
0200
0300
0000
0000
0020
0030
0000
0000
0200
0300
0000
0000
0020
0030
0000
0000
0200
0300
,
0000
0000
0020
0030
0000
0000
0200
0300
0000
0000
0020
0030
0000
0000
0200
0300
0000
0000
0020
0030
0000
0000
0200
0300
,
0000
0000
0020
0030
0000
0000
0200
0300
0000
0000
0020
0030
0000
0000
2000
3000
0002
0003
2000
3000
0002
0003
2000
3000
,
0002
0003
0000
0000
0000
0000
2200
0000
0000
0320
0000
0000
0032
0000
0000
0003
0000
0000
0010
0000
0000
0010
0000
0000
,
0010
0010
0010
0010
0002
0023
0230
0300
,
0100
0100
0020
0000
0000
0000
0031
0001
,
0020
0000
0000
0030
0100
0010
0001
0010
0100
0010
0001
0010
,
0100
0000
0010
0000
0001
0000
0010
0000
0100
0000
3000
0000
0000
0000
0000
0000
0000
0000
0000
0000
0000
1100
0000
0000
,
0000
0000
0000
1001
0000
0000
0000
0110
,
0000
0000
0000
0011
0000
0000
0000
0101
,
0000
0000
0000
0000
0000
0000
0000
0000
0000
1000
0000
0000
0000
0100
0000
0000
0000
0010
0000
0000
0000
0001
0000
0000
,
0000
0010
0000
0000
0000
0100
0000
0000
0000
1000
0000
0000
0000
0000
0000
0000
0000
0000
0000
0000
0000
0110
0000
0000
,
0000
0000
0000
0101
0000
0000
0000
1001
,
0000
0000
0000
1100
0000
0000
0000
1010
,
0000
0000
0000
0000
0000
0000
0000
0000
0000
0000
0000
0010
0000
0000
0000
0100
0000
0000
0000
1000
0000
0000
0000
0100
,
0000
0000
0000
0010
0000
0000
0000
0001
0000
0000
0000
0000
0120
0000
0000
0000
0000
0000
0000
0000
0000
2031
0000
0000
,
0000
0000
3012
0000
0000
1203
0000
0000
,
1302
0000
0000
2013
0000
0000
3120
0000
,
0000
0231
0000
0000
1301
0000
0000
0000
,
0101
0000
1100
0000
,
0101
0000
1010
0000
,
1001
0000
0000
0000
0000
0000
0001
0000
0010
0000
0100
0000
,
1000
0000
0100
0000
0010
0000
0001
0000
0000
0000
0000
0000
,
0101
0000
1100
0000
,
0110
0000
0011
0000
,
1100
0000
0000
0000
0000
0000
0001
0000
0010
0000
0100
0000
,
1000
0000
0100
0000
0010
0000
0001
0000
0000
0000
0000
0000
,
1001
0000
0110
0000
,
0011
0000
1100
0000
,
1001
0000
0000
0000
0000
0000
0001
0000
0010
0000
0100
0000
,
1000
0000
0100
0000
0010
0000
0001
0000
0000
0000
0000
0000
,
0101
0000
1001
0000
,
1010
0000
0110
0000
,
1001
0000
0000
0000
0000
0000
0001
0000
0010
0000
0100
0000
,
1000
0000
0000
0000
0100
0000
0000
0000
0010
0000
0000
0000
0012
0000
0000
0000
0000
0000
0000
0000
0000
0123
0000
0000
,
0000
0000
1230
0000
0000
2310
0000
0000
,
3201
0000
0000
1320
0000
0000
0132
0000
,
0000
0213
0000
0000
0321
0000
0000
2130
,
0000
0000
3102
0000
0000
1023
0000
0000
,
2031
0000
0000
3102
0000
0000
0213
0000
,
0000
2310
0000
0000
3021
0000
0000
1230
,
0000
0000
0312
0000
0000
0123
0000
0000
,
1032
0000
0000
0000
0000
0000
0000
0000
0000
1203
0000
0000
0000
0000
0000
0000
0000
0000
0302
0003
2000
3000
0002
0003
,
2000
3000
0002
0003
2000
3000
0000
0000
0000
0000
0000
0000
0200
0300
0000
0000
0020
0030
0000
0000
0200
0300
0000
0000
,
0020
0030
0000
0000
0200
0300
0000
0000
0020
0030
0000
0000
0200
0300
0000
0000
0020
0030
0000
0000
0200
0300
0000
0000
,
0020
0030
0000
0000
0200
0300
0000
0000
0020
0030
0000
0000
0200
0300
0000
0000
0020
0030
0000
0000
2000
3000
0002
0003
,
2000
3000
0002
0003
2000
3000
0002
0003
0000
0000
0000
0000
1002
0000
0000
0000
0000
0000
0000
0000
0000
0123
0000
0000
,
0000
0000
0231
0000
0000
2310
0000
0000
,
3201
0000
0000
1320
0000
0000
0132
0000
,
0000
1203
0000
0000
1320
0000
0000
2031
,
0000
0000
3102
0000
0000
0123
0000
0000
,
2031
0000
0000
3012
0000
0000
0213
0000
,
0000
2301
0000
0000
3021
0000
0000
1230
,
0000
0000
1302
0000
0000
0123
0000
0000
,
0132
0000
0000
0000
0000
0000
0000
0000
0000
1203
0000
0000
0000
0000
0000
0000
0000
0000
0302
0003
2000
3000
0002
0003
,
2000
3000
0002
0003
2000
3000
0000
0000
0000
0000
0000
0000
0200
0300
0000
0000
0020
0030
0000
0000
0200
0300
0000
0000
,
0020
0030
0000
0000
0200
0300
0000
0000
0020
0030
0000
0000
0200
0300
0000
0000
0020
0030
0000
0000
0200
0300
0000
0000
,
0020
0030
0000
0000
0200
0300
0000
0000
0020
0030
0000
0000
0200
0300
0000
0000
0020
0030
0000
0000
2000
3000
0002
0003
,
2000
3000
0002
0003
2000
3000
0002
0003
0000
0010
0000
0000
0100
0000
0000
1000
0000
0000
0100
0000
0000
0010
0000
0000
,
0001
0010
0001
0010
0100
1000
0100
1000
,
0100
0010
0100
0010
0100
1000
0001
1000
,
0001
0100
0001
0100
0001
0010
1000
0010
,
1000
0010
0100
0010
0100
0010
0100
1000
,
0100
1000
0100
0010
0100
0010
0001
0010
,
0001
0010
0100
1000
0100
0010
0001
0010
,
0100
0001
0010
0100
0001
0010
0100
1000
,
0100
0010
1000
0100
0010
1000
0100
0010
,
0001
0010
0001
0010
0100
0010
0100
1000
,
0100
1000
0100
0010
0100
0010
0100
1000
,
0011
0011
0011
1100
1100
1100
0101
0101
,
0101
1010
1010
1010
0001
0010
0100
1000
,
0100
0010
0001
0010
0001
0010
0100
1000
,
0100
1000
0100
0010
0100
0010
0100
1000
,
0001
1000
0001
0100
0001
0100
0001
0010
,
1000
0010
1000
0010
0100
0010
0100
0010
,
0100
1000
0100
1000
0100
0010
0100
0010
,
0001
0010
0001
0010
0100
1000
0100
0010
,
0001
0010
0100
0001
0010
0100
0001
0010
,
0100
1000
0100
0010
1000
0100
0010
1000
,
0100
0010
0001
0010
0001
0010
0100
0010
,
0100
1000
0100
1000
0100
0010
0100
0010
,
0100
1000
0001
0001
0001
0010
0010
0010
,
0100
0100
0100
0000
2200
0000
0000
0000
,
0000
0000
0000
3300
0022
0000
0000
0000
0000
0033
0220
0330
2020
0000
0000
3030
,
0202
0000
0000
0000
0000
0000
0000
0000
0000
0000
0000
0303
2002
0000
0000
0000
,
0000
3003
2020
3030
0022
0000
0000
0033
0202
0000
0000
0000
0000
0000
0000
0000
,
0000
0000
0000
0303
2200
0000
0000
0000
0000
0000
0000
0000
0000
0000
0000
3300
,
2020
3030
0220
0000
0000
0000
0000
0000
0000
0000
0000
0330
0022
0033
0002
0023
,
0230
2300
3000
0000
2200
0000
0000
3300
0220
0000
0000
0000
0000
0000
0000
0000
,
0000
0000
0000
0330
0202
0000
0000
0000
0000
0303
0022
0033
2020
0000
0000
3030
,
2002
0000
0000
0000
0000
0000
0000
0000
0000
0000
0000
3003
2200
0000
0000
0000
,
0000
3300
0220
0330
2002
0000
0000
3003
0022
0000
0000
0000
0000
0000
0000
0000
,
0000
0000
0000
0033
2020
0000
0000
0000
0000
3030
0202
0303
2020
0000
0000
3030
,
0202
0000
0000
0000
0000
0303
2200
0000
0000
0000
3300
0000
0220
0000
0000
0000
,
0330
0000
0022
0000
0000
0000
0033
0000
2000
3000
2000
0000
0000
3000
0200
0300
,
0020
0000
0000
0000
0000
0030
0200
0000
0000
0000
0000
0300
0020
0030
0002
0003
,
0020
0000
0000
0000
0000
0030
0002
0000
0000
0000
0000
0000
0000
0000
0000
0000
,
0000
0000
0000
0000
0000
0000
0000
0003
0200
0000
0000
0000
0000
0300
2000
3000
,
2000
0000
0000
3000
0200
0300
0020
0000
0000
0000
0000
0030
0200
0000
0000
0300
,
0020
0000
0030
0000
2000
3000
0002
0000
0000
0000
0000
0003
0020
0000
0000
0000
,
0000
0000
0000
0000
0000
0000
0000
0030
0002
0000
0000
0000
0000
0003
2000
3000
,
2000
0000
0000
3000
0200
0300
0020
0000
0000
0000
0000
0030
0200
0000
0000
0300
,
0020
0000
0030
0000
2000
3000
0002
0000
0000
0000
0000
0003
0020
0000
0000
0000
,
0000
0000
0000
0000
0000
0000
0000
0030
0002
0000
0000
0000
0000
0003
2000
3000
,
2000
0000
0000
3000
0200
0300
0020
0000
0000
0000
0000
0030
0200
0000
0000
0300
,
0020
0000
0030
0000
2000
3000
0002
0000
0000
0000
0000
0003
0020
0000
0000
0000
,
0000
0000
0000
0000
0000
0000
0000
0000
0000
0000
0000
0000
0030
0000
0000
1100
0000
0000
0000
1100
0000
0000
0000
0000
0000
0000
0000
0011
0000
0000
0000
0011
,
0000
0000
0010
0100
1000
0100
0010
0001
,
0010
0001
0010
0100
1000
0100
1000
0100
,
0010
0100
0010
0100
1000
0001
1000
0001
,
0100
0001
0100
0001
0010
1000
0010
1000
,
0010
0100
0010
0100
0010
0100
1000
0100
,
1000
0100
0010
0100
0010
0001
0010
0001
,
0010
0100
1000
0100
0010
0001
0010
0100
,
0001
0010
0100
0001
0010
0100
1000
0100
,
0010
1000
0100
0010
1000
0100
0010
0001
,
0010
0001
0010
0100
0010
0100
1000
0100
,
1000
0100
0010
0100
0010
0100
1000
0011
,
0011
0011
1100
1100
1100
0101
0101
0101
,
1010
1010
1010
0001
0010
0100
1000
0100
,
0010
0001
0010
0001
0010
0100
1000
0100
,
1000
0100
0010
0100
0010
0100
1000
0001
,
1000
0001
0100
0001
0100
0001
0010
1000
,
0010
1000
0010
0100
0010
0100
0010
0100
,
1000
0100
1000
0100
0010
0100
0010
0001
,
0010
0001
0010
0100
1000
0100
0010
0001
,
0010
0100
0001
0010
0100
0001
0010
0100
,
1000
0100
0010
1000
0100
0010
1000
0100
,
0010
0001
0010
0001
0010
0100
0010
0100
,
1000
0100
1000
0100
0010
0100
0010
0100
,
1000
0001
0001
0001
0010
0010
0010
0100
,
0100
0100
2000
3200
0320
0032
0023
0230
,
2300
3200
0320
0032
0023
0230
2300
3200
,
0320
0032
0023
0230
2300
3200
0320
0032
,
0023
0230
2300
3200
0320
0032
0023
0230
,
2300
3200
0320
0032
0023
0230
2300
3200
,
0320
0032
0023
0230
2300
3200
0320
0032
,
0023
0230
0312
0000
0000
0123
0000
0000
,
1230
0000
0000
2310
0000
0000
3201
0000
,
0000
1320
0000
0000
0132
0000
0000
0213
,
0000
0000
0321
0000
0000
2130
0000
0000
,
3102
0000
0000
1023
0000
0000
2031
0000
,
0000
3102
0000
0000
0213
0000
0000
2310
,
0000
0000
3021
0000
0000
1230
0000
0000
,
0312
0000
0000
0123
0000
0000
1032
0000
,
0000
0000
0000
1203
0000
0000
0000
0000
0000
0000
0000
0000
0302
0003
2000
3000
0002
0003
2000
3000
0002
0003
2000
3000
,
0000
0000
0000
0000
0000
0000
0200
0300
0000
0000
0020
0030
0000
0000
0200
0300
0000
0000
0020
0030
0000
0000
0200
0300
,
0000
0000
0020
0030
0000
0000
0200
0300
0000
0000
0020
0030
0000
0000
0200
0300
0000
0000
0020
0030
0000
0000
0200
0300
,
0000
0000
0020
0030
0000
0000
0200
0300
0000
0000
0020
0030
0000
0000
2000
3000
0002
0003
2000
3000
0002
0003
2000
3000
,
0002
0003
0000
0000
0000
0000
1002
0000
0000
0000
0000
0000
0000
0000
0000
0123
0000
0000
0000
0000
0000
0000
0000
0000
,
0231
0000
0000
2310
0000
0000
3201
0000
,
0000
1320
0000
0000
0132
0000
0000
1203
,
0000
0000
1320
0000
0000
2031
0000
0000
,
3102
0000
0000
0123
0000
0000
2031
0000
,
0000
3012
0000
0000
0213
0000
0000
2301
,
0000
0000
3021
0000
0000
1230
0000
0000
,
1302
0000
0000
0123
0000
0000
0132
0000
,
0000
0000
0000
1203
0000
0000
0000
0000
0000
0000
0000
0000
0302
0003
2000
3000
0002
0003
2000
3000
0002
0003
2000
3000
,
0000
0000
0000
0000
0000
0000
0200
0300
0000
0000
0020
0030
0000
0000
0200
0300
0000
0000
0020
0030
0000
0000
0200
0300
,
0000
0000
0020
0030
0000
0000
0200
0300
0000
0000
0020
0030
0000
0000
0200
0300
0000
0000
0020
0030
0000
0000
0200
0300
,
0000
0000
0020
0030
0000
0000
0200
0300
0000
0000
0020
0030
0000
0000
2000
3000
0002
0003
2000
3000
0002
0003
2000
3000
,
0002
0003
0000
2002
0000
0000
0000
0000
0000
0000
0000
0000
0000
0000
0000
0000
0000
0000
0000
0000
0000
0000
0000
0000
,
0000
0000
0000
0000
,
0000
0000
0000
0000
,
0000
0000
0000
0000
,
3003
0000
0000
0000
,
0000
2200
0000
3300
0202
0303
0220
0000
,
0000
0330
2020
0000
0000
0000
3030
0022
,
0000
0000
0033
2002
0000
3003
0022
0000
,
0033
2200
0000
0000
0000
0000
3300
0000
,
0000
1000
0010
0100
1000
0001
0100
0010
,
1000
0001
0100
0010
1000
0001
0010
0100
,
0010
1000
0001
0100
0010
1000
0100
0010
,
0001
0100
0010
1000
0001
0100
0010
1000
,
0001
0100
1000
0010
0100
0001
1000
0010
,
0100
0001
0010
0001
1000
0100
1000
0010
,
0001
0100
0010
0100
1000
0010
0001
1000
,
0010
0100
0010
0100
1000
0001
0001
0010
,
0001
1000
0100
1000
0001
1000
0100
0001
,
0010
1000
0100
0010
1000
0010
1000
0100
,
0010
0001
0100
0001
0010
0100
1000
0001
,
0010
0100
1000
0001
0010
0100
1000
0001
,
0100
0010
1000
0100
0010
0001
1000
0100
,
0010
0100
0001
1000
0100
1000
0010
0100
,
0001
0010
1000
0100
0001
0010
0100
0001
,
1000
0100
1000
0010
0001
0100
0010
1000
,
0100
1000
0001
0100
0010
0001
1000
0100
,
0010
0100
1000
0010
0001
0100
0010
0001
,
2000
0000
0000
0000
0000
0000
3020
0000
0032
0000
0000
0000
,
0023
0000
0000
0000
0000
0000
0000
0000
0000
2030
0000
0000
0000
0000
0000
0000
0000
0000
3200
0000
0000
0000
0320
0000
,
0000
0000
0000
0000
,
0032
0000
2003
0000
3200
0000
0302
0000
0023
0000
0230
0000
,
2300
0000
3002
0000
0203
0000
0320
0000
0032
0000
2003
3200
,
2300
0000
3020
0000
0230
0000
0302
0000
0023
0000
0230
0000
,
2300
0000
0000
0000
0000
0000
3020
0000
0032
0000
0000
0000
,
0023
0000
0000
0000
0000
0000
0000
0000
0000
2030
0000
0000
0000
0000
0000
0000
0000
0000
3200
0000
0000
0000
0320
0000
,
0000
0000
0000
0000
,
0032
0000
2003
0000
3200
0000
0302
0000
0023
0000
0230
0000
,
2300
0000
3002
0000
0203
0000
0320
0000
0032
0000
2003
3200
,
2300
0000
3020
0000
0230
0000
0302
0000
0023
0000
0230
0000
,
2300
0000
0000
0000
0000
0000
3020
0000
0032
0000
0000
0000
,
0023
0000
0000
0000
0000
0000
0000
0000
0000
2030
0000
0000
0000
0000
0000
0000
0000
0000
3200
0000
0000
0000
0320
0000
,
0000
0000
0000
0000
0000
0000
0000
0000
0230
0000
0320
0000
,
0032
0000
2003
0000
3002
0000
0023
0000
0000
0000
0000
0000
,
0230
0000
0320
0000
0032
0000
2003
0000
3020
0000
0032
0023
,
0032
0000
0203
0000
2300
0000
3020
0000
0230
0000
0302
0000
,
2003
0000
0000
0000
0000
0000
3020
0000
0032
0000
0000
0000
,
0023
0000
0000
0000
0000
0000
0000
0000
0000
2030
0000
0000
0000
0000
0000
0000
0000
0000
3200
0000
0000
0000
0320
0000
,
0000
0000
0000
0000
0000
0000
0000
0000
0230
0000
0320
0000
,
0032
0000
2003
0000
3002
0000
0023
0000
0000
0000
0000
0000
,
0230
0000
0320
0000
0032
0000
2003
0000
3020
0000
0032
0023
,
0032
0000
0203
0000
2300
0000
3020
0000
0230
0000
0320
0000
,
2032
0000
0000
0000
,
0000
0000
0000
0000
,
0000
0000
0000
0000
,
0000
0000
0000
0000
,
3003
0000
0000
0000
;

//---------------dance-single - Copied from Copied f----------------
#NOTES:
     dance-single:
     Copied from Copied f:
     Medium:
     7:
     0.854,1.000,0.358,1.000,0.299,848.000,88.000,532.000,0.000,13.000:
0000
0000
0002
0000
0000
0023
0000
0000
,
0230
0000
0000
2300
0000
0000
3200
0000
,
0000
0320
0000
0000
0032
0000
0000
0203
,
0000
0000
0320
0000
0000
2030
0000
0000
,
3002
0000
0000
0023
0000
0000
2030
0000
,
0000
3002
0000
0000
0203
0000
0000
2300
,
0000
0000
3020
0000
0000
0230
0000
0000
,
0302
0000
0000
0023
0000
0000
0032
0000
,
0000
0203
0000
0000
2302
0000
0000
0000
,
3003
0000
0000
0000
0000
0000
0200
0300
0000
0000
0020
0030
0000
0000
0200
0300
0000
0000
0020
0030
0000
0000
0200
0300
,
0000
0000
0020
0030
0000
0000
0200
0300
0000
0000
0020
0030
0000
0000
0200
0300
0000
0000
0020
0030
0000
0000
0200
0300
,
0000
0000
0020
0030
0000
0000
0200
0300
0000
0000
0020
0030
0000
0000
2002
0000
0000
0000
0000
0000
0000
0000
0000
0000
,
0000
3003
0000
0000
0000
0000
0002
0000
0000
0000
0000
0000
0000
0000
0000
0023
0000
0000
0000
0000
0000
0000
0000
0000
,
0230
0000
0000
2300
0000
0000
3200
0000
,
0000
0320
0000
0000
0032
0000
0000
0203
,
0000
0000
0320
0000
0000
2030
0000
0000
,
3002
0000
0000
0023
0000
0000
2030
0000
,
0000
3002
0000
0000
0203
0000
0000
2300
,
0000
0000
3020
0000
0000
0230
0000
0000
,
0302
0000
0000
0023
0000
0000
0032
0000
,
0000
0203
0000
0000
2302
0000
0000
0000
,
3003
0000
0000
0000
0000
0000
0200
0300
0000
0000
0020
0030
0000
0000
0200
0300
0000
0000
0020
0030
0000
0000
0200
0300
,
0000
0000
0020
0030
0000
0000
0200
0300
0000
0000
0020
0030
0000
0000
0200
0300
0000
0000
0020
0030
0000
0000
0200
0300
,
0000
0000
0020
0030
0000
0000
0200
0300
0000
0000
0020
0030
0000
0000
0000
2002
0000
0000
0000
0000
0000
0000
0000
0000
,
0000
3003
0000
0000
0000
0000
2200
0000
0000
0320
0000
0000
0032
0000
0000
0003
0000
0000
0010
0000
0000
0010
0000
0000
,
0010
0010
0010
0010
0002
0023
0230
0300
,
0100
0100
0020
0000
0000
0000
0031
0001
,
0020
0000
0030
0100
0010
0001
0010
0100
,
0010
0000
0000
0001
0000
0000
0010
0000
0000
0100
3000
0000
0000
0000
0000
0000
0000
0000
0000
0000
0000
1100
0000
0000
,
0000
0000
0000
1001
0000
0000
0000
0110
,
0000
0000
0000
0011
0000
0000
0000
0101
,
0000
0000
0000
0000
0000
0000
0000
0000
0000
1000
0000
0000
0000
0100
0000
0000
0000
0010
0000
0000
0000
0001
0000
0000
,
0000
0010
0000
0000
0000
0100
0000
0000
0000
1000
0000
0000
0000
0000
0000
0000
0000
0000
0000
0000
0000
0110
0000
0000
,
0000
0000
0000
0101
0000
0000
0000
1001
,
0000
0000
0000
1100
0000
0000
0000
1010
,
0000
0000
0000
0000
0000
0000
0000
0000
0000
0000
0000
0010
0000
0000
0000
0100
0000
0000
0000
1000
0000
0000
0000
0100
,
0000
0000
0000
0010
0000
0000
0000
0001
0000
0000
0000
0000
0020
0000
0000
0000
0000
0000
0000
0000
0000
2030
0000
0000
,
0000
0000
3002
0000
0000
0203
0000
0000
,
0302
0000
0000
2003
0000
0000
3020
0000
,
0000
0230
0000
0000
1301
0000
0000
0000
,
0101
0000
1100
0000
,
0101
0000
1010
0000
,
1001
0000
0000
0000
0000
0000
0001
0000
0010
0000
0100
0000
,
1000
0000
0100
0000
0010
0000
0001
0000
0000
0000
0000
0000
,
0101
0000
1100
0000
,
0110
0000
0011
0000
,
1100
0000
0000
0000
0000
0000
0001
0000
0010
0000
0100
0000
,
1000
0000
0100
0000
0010
0000
0001
0000
0000
0000
0000
0000
,
1001
0000
0110
0000
,
0011
0000
1100
0000
,
1001
0000
0000
0000
0000
0000
0001
0000
0010
0000
0100
0000
,
1000
0000
0100
0000
0010
0000
0001
0000
0000
0000
0000
0000
,
0101
0000
1001
0000
,
1010
0000
0110
0000
,
1001
0000
0000
0000
0000
0000
0001
0000
0010
0000
0100
0000
,
1000
0000
0000
0000
0100
0000
0000
0000
0010
0000
0000
0000
0002
0000
0000
0000
0000
0000
0000
0000
0000
0023
0000
0000
,
0000
0000
0230
0000
0000
2300
0000
0000
,
3200
0000
0000
0320
0000
0000
0032
0000
,
0000
0203
0000
0000
0320
0000
0000
2030
,
0000
0000
3002
0000
0000
0023
0000
0000
,
2030
0000
0000
3002
0000
0000
0203
0000
,
0000
2300
0000
0000
3020
0000
0000
0230
,
0000
0000
0302
0000
0000
0023
0000
0000
,
0032
0000
0000
0203
0000
0000
2302
0000
,
0000
0000
0000
0000
0000
0000
3003
0000
0000
0000
0000
0000
0200
0300
0000
0000
0020
0030
0000
0000
0200
0300
0000
0000
,
0020
0030
0000
0000
0200
0300
0000
0000
0020
0030
0000
0000
0200
0300
0000
0000
0020
0030
0000
0000
0200
0300
0000
0000
,
0020
0030
0000
0000
0200
0300
0000
0000
0020
0030
0000
0000
0200
0300
0000
0000
0020
0030
0000
0000
2002
0000
0000
0000
,
0000
0000
0000
0000
0000
0000
0000
3003
0000
0000
0000
0000
0002
0000
0000
0000
0000
0000
0000
0000
0000
0023
0000
0000
,
0000
0000
0230
0000
0000
2300
0000
0000
,
3200
0000
0000
0320
0000
0000
0032
0000
,
0000
0203
0000
0000
0320
0000
0000
2030
,
0000
0000
3002
0000
0000
0023
0000
0000
,
2030
0000
0000
3002
0000
0000
0203
0000
,
0000
2300
0000
0000
3020
0000
0000
0230
,
0000
0000
0302
0000
0000
0023
0000
0000
,
0032
0000
0000
0203
0000
0000
2302
0000
,
0000
0000
0000
0000
0000
0000
3003
0000
0000
0000
0000
0000
0200
0300
0000
0000
0020
0030
0000
0000
0200
0300
0000
0000
,
0020
0030
0000
0000
0200
0300
0000
0000
0020
0030
0000
0000
0200
0300
0000
0000
0020
0030
0000
0000
0200
0300
0000
0000
,
0020
0030
0000
0000
0200
0300
0000
0000
0020
0030
0000
0000
0200
0300
0000
0000
0020
0030
0000
0000
0000
2002
0000
0000
,
0000
0000
0000
0000
0000
0000
0000
3003
0000
0000
0000
0000
0100
0000
0000
0000
0000
0000
1000
0000
0000
0000
0000
0000
,
0010
0100
0001
1000
,
0010
0100
0010
1000
,
0001
0010
0100
0010
,
1000
0001
0100
0010
,
1000
0001
0100
0010
,
1000
0100
0001
0010
,
0001
1000
0100
0001
,
0010
1000
0010
0100
,
0001
0010
1000
0100
,
1000
0001
0100
0010
,
0001
0010
0100
0001
0010
0100
0001
0010
,
0100
0001
0010
0100
1000
0000
0100
0000
,
0001
1000
0010
0100
,
1000
0010
0100
0001
,
1000
0010
0100
1000
,
0100
0001
0010
1000
,
0010
0100
0001
0100
,
1000
0010
1000
0100
,
0001
0100
0010
0001
,
0100
0010
1000
0010
,
0100
0001
1000
0010
,
0100
0001
1000
0010
,
0100
0001
1000
0010
,
0001
0100
2200
0000
,
0000
0000
0000
3300
0022
0000
0000
0000
0000
0033
0220
0330
2020
0000
0000
3030
,
0202
0000
0000
0000
0000
0000
0000
0000
0000
0000
0000
0303
2002
0000
0000
0000
,
0000
3003
2020
3030
0022
0000
0000
0033
0202
0000
0000
0000
0000
0000
0000
0000
,
0000
0000
0000
0303
2200
0000
0000
0000
0000
0000
0000
0000
0000
0000
0000
3300
,
2020
3030
0220
0000
0000
0000
0000
0000
0000
0000
0000
0330
0022
0033
0002
0023
,
0230
2300
3000
0000
2200
0000
0000
3300
0220
0000
0000
0000
0000
0000
0000
0000
,
0000
0000
0000
0330
0202
0000
0000
0000
0000
0303
0022
0033
2020
0000
0000
3030
,
2002
0000
0000
0000
0000
0000
0000
0000
0000
0000
0000
3003
2200
0000
0000
0000
,
0000
3300
0220
0330
2002
0000
0000
3003
0022
0000
0000
0000
0000
0000
0000
0000
,
0000
0000
0000
0033
2020
0000
0000
0000
0000
3030
0202
0303
2020
0000
0000
3030
,
0202
0000
0000
0000
0000
0303
2200
0000
0000
0000
3300
0000
0220
0000
0000
0000
,
0330
0000
0022
0000
0000
0000
0033
0000
2000
3000
2000
0000
0000
3000
0200
0300
,
0020
0000
0000
0000
0000
0030
0200
0000
0000
0000
0000
0300
0020
0030
0002
0003
,
0020
0000
0000
0000
0000
0030
0002
0000
0000
0000
0000
0000
0000
0000
0000
0000
,
0000
0000
0000
0000
0000
0000
0000
0003
0200
0000
0000
0000
0000
0300
2000
3000
,
2000
0000
0000
3000
0200
0300
0020
0000
0000
0000
0000
0030
0200
0000
0000
0300
,
0020
0000
0030
0000
2000
3000
0002
0000
0000
0000
0000
0003
0020
0000
0000
0000
,
0000
0000
0000
0000
0000
0000
0000
0030
0002
0000
0000
0000
0000
0003
2000
3000
,
2000
0000
0000
3000
0200
0300
0020
0000
0000
0000
0000
0030
0200
0000
0000
0300
,
0020
0000
0030
0000
2000
3000
0002
0000
0000
0000
0000
0003
0020
0000
0000
0000
,
0000
0000
0000
0000
0000
0000
0000
0030
0002
0000
0000
0000
0000
0003
2000
3000
,
2000
0000
0000
3000
0200
0300
0020
0000
0000
0000
0000
0030
0200
0000
0000
0300
,
0020
0000
0030
0000
2000
3000
0002
0000
0000
0000
0000
0003
0020
0000
0000
0000
,
0000
0000
0000
0000
0000
0000
0000
0000
0000
0000
0000
0000
0030
0000
0000
1100
0000
0000
0000
1100
0000
0000
0000
0000
0000
0000
0000
0011
0000
0000
0000
0011
,
0000
0100
1000
0010
,
0100
0001
1000
0010
,
0100
0010
1000
0001
,
0010
0100
0010
1000
,
0001
0100
0010
1000
,
0001
0100
0010
1000
,
0100
0001
0010
0001
,
1000
0100
0001
0010
,
1000
0010
0100
0001
,
0010
1000
0100
1000
,
0001
0000
0100
0000
0010
0000
0001
0010
,
0100
0001
0010
0100
0001
0010
0100
0001
,
0010
0100
1000
0000
0100
0000
0001
0000
,
1000
0010
0100
1000
,
0010
0100
0001
1000
,
0010
0100
1000
0100
,
0001
0010
1000
0010
,
0100
0001
0100
1000
,
0010
1000
0100
0001
,
0100
0010
0001
0100
,
0010
1000
0010
0100
,
0001
1000
0010
0100
,
0001
1000
0010
0100
,
0001
1000
0010
0001
,
0100
0000
2000
3200
0320
0032
0023
0230
,
2300
3200
0320
0032
0023
0230
2300
3200
,
0320
0032
0023
0230
2300
3200
0320
0032
,
0023
0230
2300
3200
0320
0032
0023
0230
,
2300
3200
0320
0032
0023
0230
2300
3200
,
0320
0032
0023
0230
2300
3200
0320
0032
,
0023
0230
0302
0000
0000
0023
0000
0000
,
0230
0000
0000
2300
0000
0000
3200
0000
,
0000
0320
0000
0000
0032
0000
0000
0203
,
0000
0000
0320
0000
0000
2030
0000
0000
,
3002
0000
0000
0023
0000
0000
2030
0000
,
0000
3002
0000
0000
0203
0000
0000
2300
,
0000
0000
3020
0000
0000
0230
0000
0000
,
0302
0000
0000
0023
0000
0000
0032
0000
,
0000
0203
0000
0000
2302
0000
0000
0000
,
3003
0000
0000
0000
0000
0000
0200
0300
0000
0000
0020
0030
0000
0000
0200
0300
0000
0000
0020
0030
0000
0000
0200
0300
,
0000
0000
0020
0030
0000
0000
0200
0300
0000
0000
0020
0030
0000
0000
0200
0300
0000
0000
0020
0030
0000
0000
0200
0300
,
0000
0000
0020
0030
0000
0000
0200
0300
0000
0000
0020
0030
0000
0000
2002
0000
0000
0000
0000
0000
0000
0000
0000
0000
,
0000
3003
0000
0000
0000
0000
0002
0000
0000
0000
0000
0000
0000
0000
0000
0023
0000
0000
0000
0000
0000
0000
0000
0000
,
0230
0000
0000
2300
0000
0000
3200
0000
,
0000
0320
0000
0000
0032
0000
0000
0203
,
0000
0000
0320
0000
0000
2030
0000
0000
,
3002
0000
0000
0023
0000
0000
2030
0000
,
0000
3002
0000
0000
0203
0000
0000
2300
,
0000
0000
3020
0000
0000
0230
0000
0000
,
0302
0000
0000
0023
0000
0000
0032
0000
,
0000
0203
0000
0000
2302
0000
0000
0000
,
3003
0000
0000
0000
0000
0000
0200
0300
0000
0000
0020
0030
0000
0000
0200
0300
0000
0000
0020
0030
0000
0000
0200
0300
,
0000
0000
0020
0030
0000
0000
0200
0300
0000
0000
0020
0030
0000
0000
0200
0300
0000
0000
0020
0030
0000
0000
0200
0300
,
0000
0000
0020
0030
0000
0000
0200
0300
0000
0000
0020
0030
0000
0000
0000
2002
0000
0000
0000
0000
0000
0000
0000
0000
,
0000
3003
0000
2002
0000
0000
0000
0000
0000
0000
0000
0000
0000
0000
0000
0000
0000
0000
0000
0000
0000
0000
0000
0000
,
0000
0000
0000
0000
,
0000
0000
0000
0000
,
0000
0000
0000
0000
,
3003
0000
0000
0000
,
0000
2200
0000
3300
0202
0303
0220
0000
,
0000
0330
2020
0000
0000
0000
3030
0022
,
0000
0000
0033
2002
0000
3003
0022
0000
,
0033
2200
0000
0000
0000
0000
3300
0000
,
0000
0010
1000
0100
,
1000
0100
1000
0010
,
0010
0001
0010
0100
,
0001
0010
0001
0010
,
0001
1000
0100
1000
,
0100
0010
1000
1000
,
0001
0010
1000
0001
,
0010
0010
1000
0001
,
0001
0100
0001
0100
,
0010
0100
1000
1000
,
0010
0100
0010
1000
,
0010
1000
0010
1000
,
0100
1000
0010
1000
,
0010
0001
0100
0010
,
0001
1000
0001
0100
,
1000
1000
0001
0010
,
0100
0001
0010
1000
,
0010
1000
0001
0010
,
2000
0000
0000
0000
0000
0000
3020
0000
0032
0000
0000
0000
,
0023
0000
0000
0000
0000
0000
0000
0000
0000
2030
0000
0000
0000
0000
0000
0000
0000
0000
3200
0000
0000
0000
0320
0000
,
0000
0000
0000
0000
,
0032
0000
2003
0000
3200
0000
0302
0000
0023
0000
0230
0000
,
2300
0000
3002
0000
0203
0000
0320
0000
0032
0000
2003
3200
,
2300
0000
3020
0000
0230
0000
0302
0000
0023
0000
0230
0000
,
2300
0000
0000
0000
0000
0000
3020
0000
0032
0000
0000
0000
,
0023
0000
0000
0000
0000
0000
0000
0000
0000
2030
0000
0000
0000
0000
0000
0000
0000
0000
3200
0000
0000
0000
0320
0000
,
0000
0000
0000
0000
,
0032
0000
2003
0000
3200
0000
0302
0000
0023
0000
0230
0000
,
2300
0000
3002
0000
0203
0000
0320
0000
0032
0000
2003
3200
,
2300
0000
3020
0000
0230
0000
0302
0000
0023
0000
0230
0000
,
2300
0000
0000
0000
0000
0000
3020
0000
0032
0000
0000
0000
,
0023
0000
0000
0000
0000
0000
0000
0000
0000
2030
0000
0000
0000
0000
0000
0000
0000
0000
3200
0000
0000
0000
0320
0000
,
0000
0000
0000
0000
0000
0000
0000
0000
0230
0000
0320
0000
,
0032
0000
2003
0000
3002
0000
0023
0000
0000
0000
0000
0000
,
0230
0000
0320
0000
0032
0000
2003
0000
3020
0000
0032
0023
,
0032
0000
0203
0000
2300
0000
3020
0000
0230
0000
0302
0000
,
2003
0000
0000
0000
0000
0000
3020
0000
0032
0000
0000
0000
,
0023
0000
0000
0000
0000
0000
0000
0000
0000
2030
0000
0000
0000
0000
0000
0000
0000
0000
3200
0000
0000
0000
0320
0000
,
0000
0000
0000
0000
0000
0000
0000
0000
0230
0000
0320
0000
,
0032
0000
2003
0000
3002
0000
0023
0000
0000
0000
0000
0000
,
0230
0000
0320
0000
0032
0000
2003
0000
3020
0000
0032
0023
,
0032
0000
0203
0000
2300
0000
3020
0000
0230
0000
0320
0000
,
2032
0000
0000
0000
,
0000
0000
0000
0000
,
0000
0000
0000
0000
,
0000
0000
0000
0000
,
3003
0000
0000
0000
;
